osu file format v14

[General]
AudioFilename: 04 - Jessica Lange - The Name Game.mp3
AudioLeadIn: 1500
PreviewTime: 47245
Countdown: 0
SampleSet: Soft
StackLeniency: 0.7
Mode: 0
LetterboxInBreaks: 0
WidescreenStoryboard: 0

[Editor]
Bookmarks: 7972,69063,98154,112336
DistanceSpacing: 1.1
BeatDivisor: 4
GridSize: 4
TimelineZoom: 1

[Metadata]
Title:The Name Game
TitleUnicode:The Name Game
Artist:Jessica Lange
ArtistUnicode:Jessica Lange
Creator:Sister Jude
Version:Hard
Source:American Horror Story: Asylum
Tags:sniqht cancel lana banana shirley ellis ryan murphy judy fx
BeatmapID:709797
BeatmapSetID:316809

[Difficulty]
HPDrainRate:6
CircleSize:4
OverallDifficulty:7
ApproachRate:8
SliderMultiplier:1.4
SliderTickRate:2

[Events]
//Background and Video events
0,0,"american-horror-story-asylum-27970-1920x1200-1280x768.jpg",0,0
Video,1221,"namegame.avi",0,0
//Break Periods
2,98360,111956
//Storyboard Layer 0 (Background)
//Storyboard Layer 1 (Fail)
//Storyboard Layer 2 (Pass)
//Storyboard Layer 3 (Foreground)
//Storyboard Sound Samples

[TimingPoints]
706,363.636363636364,4,2,0,80,1,0
48706,-100,4,2,0,80,0,1
48796,-100,4,2,0,80,0,0

[Colours]
Combo1 : 128,255,255
Combo2 : 192,192,192
Combo3 : 29,46,44

[HitObjects]
140,40,7251,5,4,0:0:0:0:
144,48,7978,6,0,L|148:208,1,140,0|8,1:0|0:0,0:0:0:0:
148,276,8524,1,0,0:0:0:0:
72,232,8706,2,0,B|44:223|15:227|-8:240,2,70,0|0|8,0:0|0:0|0:0,0:0:0:0:
148,276,9251,1,0,0:0:0:0:
228,312,9433,2,0,L|320:308,1,70,0|0,1:0|0:0,0:0:0:0:
384,288,9796,2,0,L|476:292,1,70,8|0,0:0|0:0,0:0:0:0:
512,228,10160,1,0,0:0:0:0:
484,144,10342,1,0,0:0:0:0:
504,60,10524,1,8,0:0:0:0:
272,52,10887,6,0,L|112:56,1,140,0|8,1:0|0:0,0:0:0:0:
52,92,11433,1,0,0:0:0:0:
12,168,11615,2,0,B|-14:204|-7:252|23:279,2,105,0|8|0,0:0|0:0|0:0,0:0:0:0:
84,216,12342,2,0,B|164:244|144:184|240:228,1,140,0|8,1:0|0:0,0:0:0:0:
300,252,12887,2,0,B|346:282|404:277|443:245,2,140,,,0:0:0:0:
260,176,13796,6,0,L|263:36,1,140,0|8,1:0|0:0,0:0:0:0:
344,0,14342,2,0,B|395:-19|451:14|460:68,1,140,,,0:0:0:0:
476,140,14887,1,8,0:0:0:0:
468,228,15069,1,0,0:0:0:0:
408,292,15251,2,0,B|368:273|321:287|296:324|296:362,1,140,0|8,1:0|0:0,0:0:0:0:
214,344,15796,2,0,B|205:306|173:280|135:277|105:292,1,140,0|0,1:0|0:0,0:0:0:0:
32,340,16342,1,8,0:0:0:0:
48,96,16706,6,0,B|84:92|108:128|108:128|144:116|184:136,1,140,0|8,1:0|0:0,0:0:0:0:
256,160,17251,1,0,0:0:0:0:
324,216,17433,2,0,L|328:300,1,70,,,0:0:0:0:
388,156,17796,2,0,L|391:86,1,70,8|0,0:0|0:0,0:0:0:0:
328,24,18160,1,0,1:0:0:0:
244,4,18342,1,0,0:0:0:0:
160,32,18524,1,8,0:0:0:0:
116,108,18706,1,0,0:0:0:0:
136,192,18887,2,0,B|161:224|156:269|129:295,2,105,,,0:0:0:0:
68,288,19615,6,0,L|240:292,1,140,0|8,1:0|0:0,0:0:0:0:
296,288,20160,1,0,0:0:0:0:
368,240,20342,2,0,B|388:201|382:156|356:125,2,105,,,0:0:0:0:
292,192,21069,2,0,B|264:124|300:76|300:76|292:44,1,140,0|8,1:0|0:0,0:0:0:0:
372,16,21615,2,0,B|424:-9|482:-4|528:24,1,140,,,0:0:0:0:
512,100,22160,1,8,0:0:0:0:
512,188,22342,1,0,0:0:0:0:
512,276,22524,6,0,B|472:246|419:248|381:273,1,140,0|8,1:0|0:0,0:0:0:0:
308,324,23069,2,0,B|267:353|215:351|177:326,1,140,,,0:0:0:0:
124,256,23615,1,8,0:0:0:0:
120,168,23796,1,0,0:0:0:0:
92,84,23978,2,0,B|57:76|22:84,2,70,0|0|8,1:0|0:0|0:0,0:0:0:0:
176,104,24524,2,0,L|328:100,1,140,,,0:0:0:0:
400,120,25069,1,8,0:0:0:0:
472,168,25251,1,8,0:0:0:0:
424,308,25433,6,0,B|420:256|420:256|428:220,1,70,0|0,1:0|0:0,0:0:0:0:
472,168,25796,2,0,B|475:150|475:150|471:98,1,70,8|0,0:0|0:0,0:0:0:0:
416,32,26160,2,0,B|388:27|362:41|348:64,1,70,,,0:0:0:0:
268,80,26524,2,0,B|253:60|228:52|205:56,1,70,8|0,0:0|0:0,0:0:0:0:
132,104,26887,2,0,B|108:192|108:192|124:220|172:216,1,140,0|8,1:0|0:0,0:0:0:0:
236,200,27433,2,0,B|282:171|338:175|379:203,1,140,,,0:0:0:0:
420,312,27978,1,8,0:0:0:0:
304,264,28160,1,0,0:0:0:0:
369,197,28342,6,0,L|449:193,1,70,0|0,1:0|0:0,0:0:0:0:
304,264,28706,2,0,L|224:260,1,70,8|0,0:0|0:0,0:0:0:0:
148,252,29069,2,0,B|105:257|66:228|56:184|71:149,1,140,0|8,0:0|0:0,0:0:0:0:
80,76,29615,1,0,0:0:0:0:
156,36,29796,2,0,L|296:36,1,140,0|8,1:0|0:0,0:0:0:0:
380,56,30342,2,0,B|408:136|348:116|392:212,1,140,,,0:0:0:0:
464,156,30887,1,8,0:0:0:0:
300,92,31069,1,0,0:0:0:0:
336,264,31251,6,0,B|328:284|328:284|332:348,1,70,0|0,1:0|0:0,0:0:0:0:
248,224,31615,2,0,B|256:204|256:204|252:140,1,70,8|0,0:0|0:0,0:0:0:0:
196,88,31978,2,0,B|159:67|113:77|85:110|80:147,1,140,0|8,0:0|0:0,0:0:0:0:
68,220,32524,1,0,0:0:0:0:
112,296,32706,2,0,B|148:340|196:332|196:332|252:320,1,140,0|8,1:0|0:0,0:0:0:0:
324,336,33251,2,0,B|328:280|288:248|288:248|300:196,1,140,,,0:0:0:0:
328,128,33796,1,8,0:0:0:0:
388,64,33978,1,0,0:0:0:0:
304,44,34160,6,0,L|208:48,1,70,0|0,1:0|0:0,0:0:0:0:
156,84,34524,2,0,L|86:81,1,70,8|0,0:0|0:0,0:0:0:0:
8,120,34887,2,0,B|-25:157|-23:212|7:247,1,140,0|8,0:0|0:0,0:0:0:0:
88,284,35433,1,0,0:0:0:0:
164,240,35615,2,0,B|176:270|175:301|164:328,2,70,0|0|8,1:0|0:0|0:0,0:0:0:0:
108,172,36160,2,0,L|112:12,1,140,,,0:0:0:0:
196,8,36706,2,0,B|224:1|252:3|277:12,1,70,8|0,0:0|0:0,0:0:0:0:
348,36,37069,5,0,1:0:0:0:
412,92,37251,1,0,0:0:0:0:
428,176,37433,1,8,0:0:0:0:
392,256,37615,1,0,0:0:0:0:
274,183,37796,2,0,B|298:177|323:178|345:184,1,70,,,0:0:0:0:
224,272,38160,2,0,B|189:279|154:271,1,70,8|0,0:0|0:0,0:0:0:0:
80,224,38524,2,0,B|44:147|104:167|76:87,1,140,0|8,1:0|0:0,0:0:0:0:
8,36,39069,2,0,B|43:-6|107:-7|144:32,1,140,,,0:0:0:0:
212,64,39615,1,8,0:0:0:0:
300,60,39796,1,0,0:0:0:0:
380,24,39978,6,0,B|391:49|390:77|380:100,1,70,0|0,1:0|0:0,0:0:0:0:
332,232,40342,2,0,B|322:209|322:184|329:163,1,70,8|0,0:0|0:0,0:0:0:0:
417,255,40706,2,0,B|405:304|352:332|305:315,1,140,0|8,0:0|0:0,0:0:0:0:
240,260,41251,1,0,0:0:0:0:
192,188,41433,2,0,L|112:192,2,70,0|0|8,1:0|0:0|0:0,0:0:0:0:
260,132,41978,2,0,L|329:128,1,70,,,0:0:0:0:
412,156,42342,2,0,L|481:152,1,70,0|8,0:0|0:0,0:0:0:0:
512,72,42706,1,0,0:0:0:0:
348,92,42887,6,0,B|311:134|317:197|359:232,1,140,0|8,1:0|0:0,0:0:0:0:
464,252,43433,1,0,0:0:0:0:
384,340,43615,2,0,B|336:364|336:364|228:352,1,140,0|8,0:0|0:0,0:0:0:0:
168,324,44160,1,0,0:0:0:0:
104,260,44342,2,0,L|100:172,1,70,0|0,1:0|0:0,0:0:0:0:
128,108,44706,1,8,0:0:0:0:
204,64,44887,2,0,B|237:43|279:48|307:74|316:107,1,140,,,0:0:0:0:
344,192,45433,2,0,B|357:164|384:149|412:148,1,70,8|0,0:0|0:0,0:0:0:0:
440,260,45796,6,0,L|436:372,2,105,0|0|8,1:0|0:0|0:0,0:0:0:0:
364,156,46524,2,0,B|340:148|340:148|296:152,1,70,,,0:0:0:0:
136,204,46887,2,0,B|160:212|160:212|204:208,1,70,8|0,0:0|0:0,0:0:0:0:
176,84,47251,1,0,1:0:0:0:
20,96,48706,6,0,B|54:69|103:72|134:105|140:142,1,140,0|8,1:0|0:0,0:0:0:0:
164,220,49251,1,0,0:0:0:0:
196,312,49433,2,0,B|221:325|250:322|272:308,1,70,,,0:0:0:0:
396,236,49796,2,0,B|371:223|342:226|320:240,1,70,8|0,0:0|0:0,0:0:0:0:
480,304,50160,2,0,L|484:144,1,140,0|8,1:0|0:0,0:0:0:0:
432,80,50706,2,0,B|360:48|364:112|272:64,1,140,0|0,1:0|0:0,0:0:0:0:
208,32,51251,1,8,0:0:0:0:
112,48,51433,1,0,0:0:0:0:
176,124,51615,6,0,B|214:162|213:223|177:259,1,140,0|8,1:0|0:0,0:0:0:0:
100,304,52160,2,0,L|8:304,2,70,,,0:0:0:0:
188,348,52706,2,0,L|260:348,1,70,8|0,0:0|0:0,0:0:0:0:
352,320,53069,1,0,1:0:0:0:
476,116,53433,1,8,0:0:0:0:
384,84,53615,2,0,L|232:80,1,140,0|0,1:0|0:0,0:0:0:0:
156,124,54160,2,0,B|143:154|146:186|160:212,1,70,8|0,0:0|0:0,0:0:0:0:
216,268,54524,6,0,L|304:268,1,70,0|0,1:0|0:0,0:0:0:0:
436,208,54887,2,0,L|366:208,1,70,8|0,0:0|0:0,0:0:0:0:
496,272,55251,2,0,B|530:233|527:176|493:141,1,140,0|8,0:0|0:0,0:0:0:0:
412,92,55796,1,0,0:0:0:0:
320,59,55978,2,0,B|307:84|310:113|324:135,2,70,0|0|8,1:0|0:0|0:0,0:0:0:0:
412,92,56524,1,0,0:0:0:0:
380,184,56706,2,0,B|352:216|306:224|268:205|249:173,1,140,0|8,0:0|0:0,0:0:0:0:
184,120,57251,1,0,0:0:0:0:
96,80,57433,6,0,B|64:152|128:148|80:240,1,140,0|8,1:0|0:0,0:0:0:0:
56,308,57978,1,0,0:0:0:0:
152,296,58160,2,0,L|236:300,1,70,,,0:0:0:0:
312,260,58524,2,0,L|381:263,1,70,8|0,0:0|0:0,0:0:0:0:
460,324,58887,2,0,B|485:281|480:229|453:193,1,140,0|8,1:0|0:0,0:0:0:0:
368,140,59433,2,0,L|224:140,1,140,,,0:0:0:0:
132,152,59978,1,8,0:0:0:0:
36,140,60160,1,8,0:0:0:0:
0,232,60342,6,0,L|4:320,1,70,0|0,1:0|0:0,0:0:0:0:
36,140,60706,2,0,L|39:70,1,70,8|0,0:0|0:0,0:0:0:0:
112,4,61069,2,0,B|164:-11|216:17|236:63,1,140,0|8,0:0|0:0,0:0:0:0:
236,152,61615,1,0,0:0:0:0:
140,168,61796,2,0,B|144:208|172:232|172:232|176:268|156:312,2,140,0|8|0,1:0|0:0|0:0,0:0:0:0:
236,152,62706,1,0,0:0:0:0:
332,128,62887,2,0,L|424:128,1,70,8|0,0:0|0:0,0:0:0:0:
496,160,63251,5,0,1:0:0:0:
512,256,63433,1,0,0:0:0:0:
416,232,63615,1,8,0:0:0:0:
432,328,63796,1,0,0:0:0:0:
340,300,63978,2,8,L|188:308,1,140,0|8,1:0|0:0,0:0:0:0:
64,272,64524,2,0,B|51:247|54:218|68:196,1,70,0|0,0:0|1:0,0:0:0:0:
164,84,64887,2,0,B|174:107|173:131|164:151,1,70,0|8,0:0|0:0,0:0:0:0:
89,67,65251,2,0,B|99:25|138:-3|182:1|212:24,1,140,,,0:0:0:0:
280,44,65796,2,0,B|311:51|342:49|369:40,1,70,8|0,0:0|0:0,0:0:0:0:
430,8,66160,6,0,B|455:80|403:80|443:164,1,140,0|8,1:0|0:0,0:0:0:0:
483,218,66706,2,0,L|487:298,1,70,,,0:0:0:0:
420,344,67069,1,0,0:0:0:0:
337,317,67251,2,0,B|306:309|275:313|248:325,1,70,8|0,0:0|0:0,0:0:0:0:
173,345,67615,2,0,B|132:355|90:328|82:284|100:251,1,140,0|8,1:0|0:0,0:0:0:0:
133,169,68160,1,0,0:0:0:0:
265,213,68342,1,8,1:0:0:0:
241,73,68524,1,8,0:0:0:0:
133,169,68706,2,8,L|216:152,1,70,0|8,0:0|1:0,0:0:0:0:
24,96,69069,6,0,L|20:180,1,70,0|0,1:0|0:0,0:0:0:0:
52,248,69433,2,0,L|55:317,1,70,8|0,0:0|0:0,0:0:0:0:
136,348,69796,1,0,0:0:0:0:
220,332,69978,1,0,0:0:0:0:
304,348,70160,1,8,0:0:0:0:
388,332,70342,1,0,0:0:0:0:
448,268,70524,2,0,B|455:237|453:206|444:179,1,70,0|0,1:0|0:0,0:0:0:0:
368,80,70887,2,0,B|361:111|363:142|372:169,1,70,8|0,0:0|0:0,0:0:0:0:
448,116,71251,1,0,0:0:0:0:
296,40,71433,2,0,L|148:44,1,140,,,0:0:0:0:
76,80,71978,6,0,B|54:113|60:157|89:185|123:192,1,140,0|8,1:0|0:0,0:0:0:0:
208,188,72524,1,0,0:0:0:0:
288,152,72706,2,0,B|324:132|366:137|395:160,2,105,0|8|0,0:0|0:0|0:0,0:0:0:0:
336,228,73433,2,0,B|344:280|328:308|328:308|328:344|360:380,1,140,0|8,1:0|0:0,0:0:0:0:
432,352,73978,2,0,L|508:352,1,70,,,0:0:0:0:
468,272,74342,1,0,0:0:0:0:
502,192,74524,2,0,L|432:192,1,70,8|0,0:0|0:0,0:0:0:0:
404,112,74887,6,0,B|365:122|339:157|338:197|356:227,1,140,0|8,1:0|0:0,0:0:0:0:
408,292,75433,2,0,B|408:340|356:340|356:340|276:340,1,140,,,0:0:0:0:
212,324,75978,2,0,L|132:324,1,70,8|0,0:0|0:0,0:0:0:0:
64,360,76342,2,0,B|36:280|96:300|52:204,1,140,0|8,1:0|0:0,0:0:0:0:
32,140,76887,1,0,0:0:0:0:
64,60,77069,1,0,0:0:0:0:
148,32,77251,2,0,B|179:24|210:28|237:40,1,70,0|8,0:0|0:0,0:0:0:0:
283,90,77615,1,8,1:0:0:0:
320,168,77796,6,0,L|316:320,1,140,0|8,1:0|1:0,0:0:0:0:
240,352,78342,1,0,0:0:0:0:
160,320,78524,2,0,B|136:309|110:310|88:320,1,70,,,0:0:0:0:
9,349,78887,2,0,B|20:325|19:299|9:277,1,70,8|0,0:0|0:0,0:0:0:0:
0,196,79251,2,0,L|4:104,2,70,0|0|8,1:0|0:0|0:0,0:0:0:0:
64,256,79796,2,0,B|110:280|163:276|204:252,1,140,,,0:0:0:0:
260,192,80342,1,8,0:0:0:0:
280,108,80524,1,0,0:0:0:0:
216,48,80706,6,0,B|253:15|308:17|343:47,2,140,0|8|0,1:0|0:0|0:0,0:0:0:0:
152,108,81615,1,0,0:0:0:0:
132,192,81796,1,8,0:0:0:0:
168,272,81978,1,0,0:0:0:0:
240,316,82160,2,0,L|324:312,1,70,0|0,1:0|0:0,0:0:0:0:
392,288,82524,1,8,0:0:0:0:
472,324,82706,2,0,B|500:244|440:264|484:168,1,140,,,0:0:0:0:
508,108,83251,2,0,B|515:81|513:55|504:31,1,70,8|0,0:0|0:0,0:0:0:0:
424,8,83615,6,0,L|276:16,1,140,0|8,1:0|1:0,0:0:0:0:
204,48,84160,1,0,0:0:0:0:
140,108,84342,2,0,B|111:151|115:205|143:243,1,140,0|8,0:0|0:0,0:0:0:0:
216,284,84887,1,0,0:0:0:0:
296,248,85069,2,0,B|326:233|361:239|384:260,1,70,0|0,1:0|0:0,0:0:0:0:
252,352,85433,2,0,B|222:367|187:361|164:340,1,70,8|0,0:0|0:0,0:0:0:0:
116,300,85796,2,0,B|104:260|124:232|124:232|116:208|128:184|116:164,1,140,0|8,0:0|0:0,0:0:0:0:
48,108,86342,1,0,0:0:0:0:
96,36,86524,6,0,L|184:32,1,70,0|0,1:0|0:0,0:0:0:0:
321,55,86887,2,0,L|252:52,1,70,8|0,0:0|0:0,0:0:0:0:
384,0,87251,2,0,B|413:31|416:76|393:111|361:128,1,140,0|8,0:0|0:0,0:0:0:0:
288,156,87796,1,0,0:0:0:0:
224,216,87978,2,0,B|210:244|215:276|232:300,1,70,0|0,1:0|0:0,0:0:0:0:
324,348,88342,2,0,B|338:320|333:288|316:264,1,70,8|0,0:0|0:0,0:0:0:0:
224,216,88706,2,0,L|72:220,1,140,0|8,0:0|0:0,0:0:0:0:
8,176,89251,1,0,0:0:0:0:
40,96,89433,6,0,B|72:56|128:64|128:64|160:32,1,140,0|8,1:0|0:0,0:0:0:0:
196,112,89978,2,0,B|225:82|225:82|281:90|313:50,1,140,,,0:0:0:0:
388,8,90524,1,8,0:0:0:0:
472,28,90706,1,0,0:0:0:0:
512,104,90887,2,0,L|508:244,1,140,0|8,1:0|0:0,0:0:0:0:
464,320,91433,1,0,0:0:0:0:
380,296,91615,1,0,1:0:0:0:
296,320,91796,1,0,0:0:0:0:
212,296,91978,2,0,L|132:304,1,70,8|0,0:0|0:0,0:0:0:0:
56,304,92342,6,0,B|42:277|47:246|64:224,1,70,0|0,1:0|0:0,0:0:0:0:
84,88,92706,2,0,B|96:110|94:135|83:155,1,70,8|0,0:0|0:0,0:0:0:0:
8,60,93069,2,0,B|24:20|64:-2|107:4|135:27,1,140,0|8,0:0|0:0,0:0:0:0:
200,64,93615,2,0,L|352:60,2,140,0|8|0,1:0|0:0|0:0,0:0:0:0:
120,96,94524,1,0,0:0:0:0:
72,168,94706,1,0,0:0:0:0:
88,256,94887,1,8,0:0:0:0:
156,308,95069,1,0,0:0:0:0:
244,312,95251,6,0,B|296:292|332:308|332:308|368:300|400:312,1,140,0|8,1:0|0:0,0:0:0:0:
468,312,95796,2,0,B|481:285|478:255|464:232,1,70,,,0:0:0:0:
420,172,96160,1,0,0:0:0:0:
360,108,96342,2,0,B|350:85|351:60|361:39,1,70,8|0,0:0|0:0,0:0:0:0:
420,172,96706,2,0,L|256:184,1,140,0|8,1:0|0:0,0:0:0:0:
160,196,97251,5,4,0:0:0:0:
84,292,97433,1,0,0:0:0:0:
44,176,97615,2,0,L|-8:160,2,35,0|0|8,0:0|0:0|0:0,0:0:0:0:
120,80,97978,1,0,0:0:0:0:
240,64,98160,1,0,1:0:0:0:
256,192,112706,12,0,115251,1:0:0:0:
76,312,115615,6,8,L|76:172,1,140,0|8,1:0|0:0,0:0:0:0:
104,88,116160,1,0,0:0:0:0:
176,40,116342,1,0,0:0:0:0:
260,64,116524,2,0,B|336:99|316:39|396:67,1,140,8|0,0:0|0:0,0:0:0:0:
464,120,117069,2,0,L|468:200,1,70,0|0,1:0|0:0,0:0:0:0:
420,264,117433,2,0,L|423:333,1,70,8|0,0:0|0:0,0:0:0:0:
508,292,117796,1,0,0:0:0:0:
480,204,117978,2,0,B|439:167|377:174|344:216,1,140,8|0,0:0|0:0,0:0:0:0:
296,272,118524,6,0,B|248:300|208:276|208:276|176:292|144:268,1,140,0|8,1:0|0:0,0:0:0:0:
92,228,119069,1,0,0:0:0:0:
44,156,119251,2,0,L|40:28,2,105,0|8|0,0:0|0:0|0:0,0:0:0:0:
92,228,119978,2,0,B|105:266|148:286|188:272|207:241,1,140,0|8,1:0|0:0,0:0:0:0:
252,172,120524,2,0,B|275:140|318:133|352:155|363:188,1,140,,,0:0:0:0:
400,268,121069,2,0,L|400:348,1,70,8|0,0:0|0:0,0:0:0:0:
480,304,121433,6,0,L|480:148,1,140,0|8,1:0|0:0,0:0:0:0:
432,92,121978,2,0,B|386:61|328:67|289:99,1,140,,,0:0:0:0:
228,140,122524,2,0,B|200:147|172:145|147:136,1,70,8|0,0:0|0:0,0:0:0:0:
76,112,122887,2,8,B|36:116|12:156|12:192|32:228|64:248|104:244|144:232|184:224|220:232|256:244|288:276|288:344,1,420,0|8,1:0|0:0,0:0:0:0:
256,192,124342,12,0,128706,1:0:0:0:
120,316,129069,5,8,0:0:0:0:
88,236,129251,2,0,L|88:88,1,140,0|0,1:0|0:0,0:0:0:0:
152,36,129796,2,0,B|180:22|212:27|236:44,1,70,8|0,0:0|0:0,0:0:0:0:
292,84,130160,2,0,B|333:112|385:110|423:84,1,140,0|8,1:0|0:0,0:0:0:0:
496,36,130706,2,0,L|504:192,1,140,,,0:0:0:0:
464,252,131251,1,8,0:0:0:0:
380,236,131433,1,0,0:0:0:0:
300,256,131615,6,0,B|261:289|206:287|169:257,1,140,0|8,1:0|0:0,0:0:0:0:
104,188,132160,2,0,L|100:92,2,70,0|4|4,0:0|0:0|0:0,0:0:0:0:
64,264,132706,2,0,L|66:333,1,70,0|4,0:0|0:0,0:0:0:0:
152,352,133069,1,4,0:0:0:0:
256,192,133251,12,0,135887,0:0:0:0:
